#TITLE:Wings For My Way;
#SUBTITLE:(F-Zero GX);
#ARTIST:Hidenori Shoji;
#TITLETRANSLIT:;
#SUBTITLETRANSLIT:;
#ARTISTTRANSLIT:;
#CREDIT:;
#BANNER:WFMW-Ba.jpg;
#BACKGROUND:WFMW-Bg.jpg;
#LYRICSPATH:;
#CDTITLE:Mus1c.png;
#MUSIC:Wings for my way.mp3;
#OFFSET:0.000;
#SAMPLESTART:11.980;
#SAMPLELENGTH:13.000;
#SELECTABLE:YES;
#BPMS:0.000=141.100;
#STOPS:;
#BGCHANGES:;
// cache tags:
#FIRSTBEAT:1.500;
#LASTBEAT:388.500;
#SONGFILENAME:Songs/Mus1c/Wings For My Way/Wings.sm;
#HASMUSIC:1;
#HASBANNER:1;
#MUSICLENGTH:175.386;
// end cache tags

//---------------dance-single - ----------------
#NOTES:
     dance-single:
     :
     Challenge:
     12:
     1.000,1.000,0.741,1.000,1.000,1123.000,130.000,247.000,0.000,56.000:
0000
0000
0000
0000
0000
0000
0101
0101
0101
0010
0001
0100
1000
0001
0010
0100
,
0001
0010
0100
1000
0100
0010
0100
1000
0100
0010
0002
0000
0023
0000
0230
0000
,
2300
3200
0302
0123
2031
3200
0302
0023
,
0230
2300
3200
0321
0132
0203
2300
3002
,
0203
2300
3020
2230
0302
0203
0302
0203
,
0302
0023
0230
0312
0123
0032
0203
0320
,
0032
0023
0032
0123
0132
0203
0320
0032
,
0023
0032
0023
0231
3312
0223
2332
3223
,
1330
1000
1100
0100
0110
0010
0010
1000
0100
0010
0001
0100
0010
1000
0001
0100
,
0010
1000
0001
0100
0010
0001
1010
0100
0001
0100
1000
0010
0100
0001
0010
0100
,
1000
0100
0010
1000
0001
0100
0011
1000
0010
0100
0001
0010
0100
0010
0001
0100
,
0010
0001
1000
0010
0100
0001
0110
0001
1000
0010
0100
0001
1000
0001
1000
0010
,
0100
0001
0100
0001
1000
0010
0101
0010
0100
0010
1000
0100
0001
0010
0100
1000
,
0001
0010
0100
0001
0010
1000
0101
0010
1000
0001
0100
0001
0010
1000
0001
0100
,
0010
1000
0001
0100
0010
1000
0011
0100
0001
0100
1000
0010
0001
0100
0010
0100
,
0001
0010
0100
0010
0001
0100
1001
0000
1001
0100
0100
0100
0001
0001
0001
1000
,
1000
1000
0010
0010
0010
0010
0010
1000
1000
0001
0010
0100
0010
0010
0001
1000
,
0010
0001
0100
0100
1000
0010
0001
0001
0010
0100
0001
0010
1000
1000
0001
0100
,
0001
1000
0010
0010
0001
0010
0100
0100
1000
0010
0100
1000
0001
0001
0010
0100
,
0001
0010
1000
1000
0100
0010
0010
0001
1000
0010
0001
0100
0100
1000
0100
0010
,
1000
0010
0001
0001
0010
0001
0100
1000
1000
0100
0001
1000
0010
0010
0001
0010
,
0001
1000
0100
0100
0010
0001
0001
0100
0010
0001
0100
0001
1000
1000
0001
0100
,
1000
0010
0010
0100
0001
0010
1000
1000
0001
0100
0010
1000
0100
0010
0010
0001
,
0010
1000
0100
0100
0010
0100
0001
0001
0010
0100
0001
0010
1000
1000
0001
0010
,
0100
1000
0100
0010
0010
0001
0010
0100
0100
0010
1000
0010
0100
0010
0002
0000
,
0020
0000
0230
0000
,
0000
0000
0000
0000
0303
0000
1001
0000
1001
0010
0100
0001
0100
1000
0010
0100
,
0001
0010
0100
1000
0001
0010
0100
0001
1000
0010
0100
1000
0010
0100
0001
1000
,
0010
0100
0010
0001
1000
0001
1000
0100
0010
0001
0100
1000
0220
0000
0000
0000
,
0000
0032
0000
2003
0000
0000
0000
0000
,
0000
0000
0000
0000
3300
0000
0110
0000
0110
0001
1000
0001
1000
0001
0010
0100
,
0010
0100
0010
1000
0010
1000
0110
0000
0110
0001
0010
0100
1000
0001
0220
0000
,
0000
0000
1331
0000
0010
0001
0100
0010
0001
1000
0100
0010
0001
0100
0001
0010
,
0100
1000
0100
0010
0100
0010
1000
0001
0100
0001
0010
1000
0100
0010
0100
1000
,
0100
0010
1000
0001
0010
0100
0010
1000
0100
0010
0001
0100
1000
0010
0100
1000
,
0001
0010
0100
1000
0100
0001
0010
0100
0001
0100
0010
1000
0010
0100
0001
1000
,
0100
0010
0001
0010
0100
0001
0100
1000
0010
1000
0010
0001
0100
1000
0010
0001
,
0010
0100
1000
0010
0001
0100
0001
0100
0010
0001
0100
1000
0001
0010
0100
1000
,
0100
0010
0100
1000
0001
0100
0010
0001
0100
0010
1000
0001
0100
0010
1000
0010
,
0001
0100
1000
0001
0100
1000
0100
0010
0010
1000
1000
1000
0100
0100
0010
0010
,
0010
0001
0001
0001
0010
0010
0010
1010
1000
0010
0001
0010
1100
0100
0001
0010
,
0100
0010
0100
1001
1000
0010
0100
0011
0010
0100
0010
0001
1010
0010
0100
0001
,
0010
0100
1100
2000
0000
0000
3110
0100
0001
0010
0100
0001
1010
0010
0100
0001
,
1000
0100
0011
0010
1000
0100
0011
0001
0100
0010
1000
0001
0110
0100
0001
0100
,
1000
0010
0101
0200
0000
0000
1301
1000
0100
0010
1000
0001
0110
0100
0001
0010
,
1000
0010
0001
1100
0100
0001
1010
1000
0001
0010
0100
0001
0110
0010
1000
0100
,
0010
0100
1001
0002
0000
0000
1103
1000
0010
0100
0001
1000
0010
0100
0001
0010
,
0100
0000
0000
0000
1000
0000
0000
0000
0001
0000
0000
0000
0100
0000
0000
0000
0010
0000
0000
0000
1000
0000
0000
0000
0001
0000
0000
0000
0100
0000
0000
0000
1000
0000
0000
0000
0010
0000
0000
0000
2002
0000
0000
0000
0000
0000
0000
0003
3022
0000
0000
0000
0000
0000
0000
0030
0223
0000
0000
0000
0000
0000
0000
0000
,
0000
0000
2332
0000
0000
0000
3203
0000
0000
0302
0000
0000
0000
0000
0000
0000
,
0000
0000
0000
0000
0023
0000
0000
2030
0000
0000
3002
0000
0000
0000
0000
0000
,
0000
0000
0000
0000
0000
0000
1103
0000
0000
0020
0000
0000
0230
0000
0000
0302
,
0000
0000
0000
0000
0000
0000
0000
2003
0000
0000
0000
3200
0000
0000
0000
0000
,
0000
0000
0000
0300
0000
0000
0000
0000
0000
0000
0000
0000
0000
0000
0000
0000
0000
0000
0001
0000
0010
0000
0100
0000
1000
0000
0000
0010
0000
0000
0100
0000
0000
0001
0000
0000
1000
0000
0100
0000
0010
0000
0001
0000
0000
0010
0000
0000
,
0100
0000
0000
0001
0000
0000
0100
0000
0010
0000
0001
0000
1000
0000
0010
0000
0100
0000
0001
0000
0010
0000
1000
0000
0001
0000
0100
0000
0010
0000
1000
0000
0001
0000
0010
0000
0100
0000
1000
0000
0001
0000
0100
0000
0010
0000
1000
0000
,
0020
0000
0000
2030
0000
3002
0000
0000
0023
0000
0230
0000
0000
2300
0000
0000
,
0000
0000
0000
0000
0000
3002
0023
0000
2030
0000
3002
0000
0000
0203
0000
0000
,
0000
0000
0000
0320
0000
0000
0000
1032
0000
0000
0100
0010
0100
0010
0100
0010
,
0100
0010
2003
0010
3200
0000
0000
0320
0000
0000
0032
0000
0000
0000
0000
0000
,
0000
0000
2003
0000
3000
0000
0000
0000
0001
0010
0001
0010
0001
0010
0100
1000
,
0001
1000
0001
1000
0001
0010
1000
0100
0001
0100
0001
0100
0010
0001
0100
0010
,
1000
0100
0001
0010
0100
1000
0102
0000
0000
0000
0023
0000
0230
0000
0000
0302
,
0000
0000
2003
0000
0000
3210
0000
1302
0000
0000
0000
0023
0000
0230
0000
2300
,
0000
3200
0000
0302
0000
0000
2023
0000
0000
3032
0000
0000
0000
0000
0000
0000
,
0000
0000
0000
0000
0000
0000
0003
0000
0000
0000
0000
0100
0010
0001
0010
0100
1000
0010
0100
0001
0100
1000
0100
0001
,
2000
0000
3200
0300
0002
0000
0023
2032
3003
0000
2002
3003
0000
2002
3003
0000
,
2002
3003
0000
0110
0000
0110
0000
0022
0033
0000
0022
0033
0000
0022
0033
0000
,
0022
0033
0000
0110
0000
0110
0000
2200
3300
0000
2200
3300
0000
2200
3300
0000
,
2200
3300
0000
0110
0000
0110
0000
0202
0303
0000
0202
0303
0000
0202
0303
0000
,
0202
0303
0000
0110
0000
0110
0000
0110
0000
0000
2020
3030
0000
2020
3030
0000
,
2020
3030
0000
0110
0000
0110
0000
0220
0330
0000
0220
0330
0000
0220
0330
0000
,
0220
0330
0000
0110
0000
0110
0000
2002
3003
0000
2002
3003
0000
2002
3003
0000
,
2002
3003
0000
0110
0000
0110
0000
0022
0033
0000
2200
3300
0000
0202
0303
0000
,
2020
3030
0000
0220
0330
2002
0000
3003
0000
0000
0000
0020
0000
2030
3002
0000
,
0000
0023
0230
0000
2300
0000
0000
3000
0000
0000
0000
0002
0000
0023
0230
0000
,
0000
0320
2030
0000
3002
0000
0000
0003
0000
0000
0000
0200
0000
0302
0023
0000
,
0000
2030
3002
0000
0203
0000
0000
0300
0000
0000
0000
2000
0000
3020
0230
0000
,
0000
0302
0023
0000
2030
0000
0000
3000
0000
0000
0000
0120
0000
0032
0203
0000
,
0000
0320
0032
0000
0203
0000
0000
0300
0000
0000
0000
2100
0000
3200
0320
0000
,
0000
2030
3200
0000
0320
0000
0000
0030
0000
0000
0000
0102
0000
0023
0230
0000
,
0000
2300
3020
0000
0032
0000
2000
0000
3023
0000
2030
0000
0000
0010
0010
3210
,
0010
0010
0010
0010
0310
0010
0010
0000
2200
0000
3322
0000
0000
0000
0000
0000
,
0000
0000
0000
0030
0000
0000
1003
0000
0100
0000
0010
0000
0001
0000
0010
0000
0100
0000
1000
0000
0010
0000
0100
0000
0001
0000
0000
0010
0000
0000
0100
0000
0000
0001
0000
0000
1000
0000
0000
0010
0000
0000
0100
0000
0010
0000
0100
0000
,
0010
0001
1000
0100
0010
0001
0100
1000
0001
0010
0100
1000
0010
0001
0100
1000
,
0010
0100
0001
0100
0010
1000
0001
0100
0010
1000
0001
0100
0010
1000
0001
0100
,
0020
0000
0000
0000
0000
0000
0030
0000
0000
0000
0000
0001
0000
0010
0000
1000
0000
0010
0000
0100
0000
0001
0000
0010
0000
0100
0000
1000
0000
0001
0000
0010
,
0000
0100
0000
1000
0000
0001
0000
0010
0000
0100
0000
1000
0000
0001
0000
0010
0000
0100
0000
1000
0000
0100
0000
0010
0000
0001
0000
1000
0000
0100
0000
0010
,
0000
0001
0000
1000
0000
0100
0000
0010
0000
0001
0000
0010
0000
1000
0000
0100
0000
1000
0000
0001
0000
1000
0000
0100
0000
1000
0000
0010
0000
1000
0000
0100
,
0000
1000
0000
0001
0000
1000
0000
0010
0000
1000
0000
0100
0000
1000
0000
0000
1100
0000
0000
0000
1010
0000
0000
0000
2002
0000
0000
0000
0000
0000
0000
0000
,
0000
0000
0000
0000
3003
0000
0000
0000
0000
0000
0000
0000
0001
0010
0100
1000
0000
0001
0000
0010
0000
1000
0000
0010
0000
0100
0000
0001
0000
1000
0000
0010
,
0000
0100
0000
1000
0000
0001
0000
0010
0000
0100
0000
0001
0000
1000
0000
0010
0000
0100
0000
1000
0000
0001
0000
0100
0000
0010
0000
0001
0000
0100
0000
0010
,
0000
1000
0000
0100
0000
0010
0000
0001
0000
0010
0000
1000
0001
0000
0000
0000
0001
0000
0010
0000
0100
0000
1000
0000
0000
0001
0010
0001
0010
0100
0000
0010
,
0000
1000
0000
0001
0000
0100
0000
0010
0000
0001
0000
0010
0000
1000
0000
0100
0000
0010
0000
1000
0000
0001
0000
0010
0000
0100
0000
0010
0000
0001
0000
0100
,
0000
0010
0000
1000
0000
0001
0000
0100
0000
0010
0000
0001
0000
1000
0000
0010
0000
0100
0000
0001
0000
0100
0000
1000
0000
0010
0000
0100
0000
0001
0000
0010
,
0000
0100
0000
1000
0000
0010
0000
0100
0000
0001
0000
0010
0000
0001
0000
0100
0000
0010
0000
0001
0000
0010
0000
1000
0000
0100
0000
0010
0000
0001
0000
0100
,
0000
0010
0000
0001
0000
0010
0000
0100
0000
1000
0000
0100
0000
0010
0000
1000
0000
0010
0000
0100
0000
0001
0000
0010
0000
0100
0000
0010
0000
0100
0000
0010
,
1001
0000
1001
0000
1001
0000
1001
0000
1001
0000
1001
0000
1001
0010
0000
0100
0000
0001
0000
1000
0000
0010
0000
0100
0000
1000
0000
0010
0000
0002
0000
0000
,
0000
0000
0000
0003
0000
0000
0200
0000
0320
0000
0230
0000
0000
0000
2302
0000
,
0000
3003
0000
0000
0000
0000
0000
0000
;
